FFmpeg开发笔记(三)FFmpeg的可执行程序介绍

简介: FFmpeg提供ffmpeg、ffplay和ffprobe三个可执行程序。ffmpeg用于音视频转换和查询支持信息,如编解码器、文件格式和协议。ffplay是一个简单的播放器,支持播放音视频并显示相关信息。ffprobe用于分析多媒体文件参数和数据包详情。《FFmpeg开发实战:从零基础到短视频上线》一书提供更深入的开发知识。

​外界对于FFmpeg主要有两种使用途径,一种是在命令行运行FFmpeg的可执行程序,该方式适合没什么特殊要求的普通场景;另一种是通过代码调用FFmpeg的动态链接库,由于开发者可以在C代码中编排个性化的逻辑,因此该方式适合厂商专用的特制场景。更多详细的FFmpeg开发知识参见《FFmpeg开发实战:从零基础到短视频上线》一书。
开源的FFmpeg框架提供了三个可执行程序,分别是ffmpeg、ffplay和ffprobe,下面分别展开详细介绍。

1、ffmpeg程序

ffmpeg程序主要有两个用途,一个是查询FFmpeg的支持信息,另一个是处理音视频的转换操作。关于音视频的转换命令,会在后面的文章中逐一介绍,这里只说明该程序能够查到哪些FFmpeg支持信息。前面在搭建FFmpeg开发环境的时候,提到可以用下面命令查看FFmpeg的版本信息:

ffmpeg -version

除此之外,ffmpeg程序还能查询它所支持的文件格式,比如下面命令可以查看FFmpeg支持的文件格式:

ffmpeg -formats

执行上面命令,控制台回显长长的一串文件格式支持列表,列表开头是下面这样子的。

File formats:
 D. = Demuxing supported
 .E = Muxing supported
 --
 D  3dostr          3DO STR
  E 3g2             3GP2 (3GPP2 file format)
  E 3gp             3GP (3GPP file format)
 D  4xm             4X Technologies

可见FFmpeg支持的文件格式分为两种类型,一种被标记为D,表示支持该类型文件的解析;另一种被标记为E,表示支持该类型文件的封装。继续下拉这一长串文件格式列表,既能找到古老的vcd格式,也能找到风靡一时的rm和flv格式,还能找到mp3和mp4等常见格式,看来FFmpeg真的将音视频格式一网打尽了。
ffmpeg程序能够查看的更多信息见下。由于相关概念比较专业,因此这里不再一一展开,等到后续有涉及时再来讲解。

ffmpeg -codecs:查看支持的编解码器
ffmpeg -formats:查看支持的文件格式
ffmpeg -help:查看命令行的帮助信息
ffmpeg -protocols:查看支持的通讯协议
ffmpeg -version:查看FFmpeg的版本信息

2、ffplay程序

ffplay程序相当于一个播放器,主要用来播放音视频文件。在播放音频时,ffplay不仅会让扬声器放出声音,还会在屏幕展示该音频的波形画面。在播放视频时,ffplay会在屏幕展示连续的视频画面,就像看电影看电视那样。如果视频文件携带有音频数据,那么ffplay会让扬声器同时播放声音。
以播放视频为例,下面命令使用ffplay程序播放名叫fuzhous.mp4的视频文件。

ffplay fuzhous.mp4

执行上面命令,控制台一边弹出视频播放器窗口如下图所示,一边回显以下的输入文件信息。

ffplay1.png

Input #0, mov,mp4,m4a,3gp,3g2,mj2, from 'fuzhous.mp4':
  Metadata:
    major_brand     : isom
    minor_version   : 512
    compatible_brands: isomiso2avc1mp41
    encoder         : Lavf59.34.102
  Duration: 00:00:19.52, start: 0.000000, bitrate: 288 kb/s
  Stream #0:0[0x1](und): Video: h264 (High) (avc1 / 0x31637661), yuv420p(progressive), 480x270 [SAR 1:1 DAR 16:9], 285 kb/s, 25 fps, 25 tbr, 12800 tbn (default)

根据以上的文件信息,可知该视频持续时间为19.52秒,视频编码器采用h264,视频分辨率为480x270,fps帧率为每秒25帧。
再来看看播放音频,下面命令表示使用ffplay程序播放名叫ships.mp3的音频文件。

ffplay ships.mp3

执行上面命令,控制台一边弹出音频波形窗口如下图所示,一边回显以下的输入文件信息。
ffplay2.png

Input #0, mp3, from 'ships.mp3':   0KB vq=    0KB sq=    0B f=0/0
  Metadata:
    title           : 渔舟唱晚
    artist          : 中国十大古典名曲
    genre           : Other
    encoder         : Lavf59.27.100
  Duration: 00:03:37.91, start: 0.025057, bitrate: 128 kb/s
  Stream #0:0: Audio: mp3, 44100 Hz, stereo, fltp, 128 kb/s

根据以上的文件信息,可知晓该音频的标题和演唱者,以及音频的持续时间为3分37.91秒,音频编码器采用mp3,采样频率为44100赫兹。
ffplay程序的更多命令行参数可通过下面命令查看,这里不再一一展开了。

ffplay -help

3、ffprobe程序

ffprobe程序是一个多媒体分析工具,它既能分析音视频的文件参数、容器参数等信息,也能分析音视频文件中每个数据包的大小、类型、编解码器等信息。
以查看文件参数为例,下面命令表示使用ffprobe查看视频文件2018.mp4的格式信息。

ffprobe -show_format 2018.mp4

执行上面命令,控制台回显如下的文件格式信息,斜杆后面是笔者添加的说明注释。

[FORMAT]
filename=2018.mp4    // 文件名
nb_streams=2    // 流的数量。为2表示包含视频流和音频流
nb_programs=0
format_name=mov,mp4,m4a,3gp,3g2,mj2    // 格式名称
format_long_name=QuickTime / MOV    // 完整的格式名称
start_time=0.000000    // 开始时间,单位秒
duration=253.332993    // 结束时间,单位秒
size=42853286    // 文件大小,单位字节
bit_rate=1353263    // 比特率,即每秒传输的比特数量(1个字节有8个比特)
probe_score=100
[/FORMAT]

因为ffprobe程序返回的文件信息直接显示在控制台,密密麻麻令人看得眼花缭乱,所以实际上很少使用ffprobe分析音视频,而是采用第三方专业的桌面软件加以分析,后面讲到相关格式时再介绍这些软件。更多详细的FFmpeg开发知识参见《FFmpeg开发实战:从零基础到短视频上线》一书。

目录
相关文章
|
5天前
|
编解码 Linux 5G
FFmpeg开发笔记(二十)Linux环境给FFmpeg集成AVS3解码器
AVS3,中国制定的第三代音视频标准,是首个针对8K和5G的视频编码标准,相比AVS2和HEVC性能提升约30%。uavs3d是AVS3的解码器,支持8K/60P实时解码,且在各平台有优秀表现。要为FFmpeg集成AVS3解码器libuavs3d,需从GitHub下载最新源码,解压后配置、编译和安装。之后,重新配置FFmpeg,启用libuavs3d并编译安装,通过`ffmpeg -version`确认成功集成。
17 0
FFmpeg开发笔记(二十)Linux环境给FFmpeg集成AVS3解码器
|
6天前
|
存储 缓存 调度
FFmpeg开发笔记(十九)FFmpeg开启两个线程分别解码音视频
《FFmpeg开发实战》第10章示例playsync.c在处理音频流和视频流交错的文件时能实现同步播放,但对于分开存储的格式,会出现先播放全部声音再快速播放视频的问题。为解决此问题,需改造程序,增加音频处理线程和队列,以及相关锁,先将音视频帧读入缓存,再按时间戳播放。改造包括声明新变量、初始化线程和锁、修改数据包处理方式等。代码修改后在playsync2.c中,编译运行成功,控制台显示日志,SDL窗口播放视频并同步音频,证明改造有效。
15 0
FFmpeg开发笔记(十九)FFmpeg开启两个线程分别解码音视频
|
9天前
FFmpeg开发笔记(十八)FFmpeg兼容各种音频格式的播放
《FFmpeg开发实战》一书中,第10章示例程序playaudio.c原本仅支持mp3和aac音频播放。为支持ogg、amr、wma等非固定帧率音频,需进行三处修改:1)当frame_size为0时,将输出采样数量设为512;2)遍历音频帧时,计算实际采样位数以确定播放数据大小;3)在SDL音频回调函数中,确保每次发送len字节数据。改进后的代码在chapter10/playaudio2.c,可编译运行播放ring.ogg测试,成功则显示日志并播放铃声。
19 1
FFmpeg开发笔记(十八)FFmpeg兼容各种音频格式的播放
|
9天前
|
算法 Linux Windows
FFmpeg开发笔记(十七)Windows环境给FFmpeg集成字幕库libass
在Windows环境下为FFmpeg集成字幕渲染库libass涉及多个步骤,包括安装freetype、libxml2、gperf、fontconfig、fribidi、harfbuzz和libass。每个库的安装都需要下载源码、配置、编译和安装,并更新PKG_CONFIG_PATH环境变量。最后,重新配置并编译FFmpeg以启用libass及相关依赖。完成上述步骤后,通过`ffmpeg -version`确认libass已成功集成。
27 1
FFmpeg开发笔记(十七)Windows环境给FFmpeg集成字幕库libass
|
9天前
|
安全 Linux Android开发
FFmpeg开发笔记(十六)Linux交叉编译Android的OpenSSL库
该文介绍了如何在Linux服务器上交叉编译Android的FFmpeg库以支持HTTPS视频播放。首先,从GitHub下载openssl源码,解压后通过编译脚本`build_openssl.sh`生成64位静态库。接着,更新环境变量加载openssl,并编辑FFmpeg配置脚本`config_ffmpeg_openssl.sh`启用openssl支持。然后,编译安装FFmpeg。最后,将编译好的库文件导入App工程的相应目录,修改视频链接为HTTPS,App即可播放HTTPS在线视频。
32 3
FFmpeg开发笔记(十六)Linux交叉编译Android的OpenSSL库
|
9天前
|
Web App开发 Windows
FFmpeg开发笔记(十五)详解MediaMTX的推拉流
MediaMTX是开源轻量级流媒体服务器,提供RTSP, RTMP, HLS, WebRTC和SRT服务。启动后,它在不同端口监听。通过FFmpeg的推拉流测试,证明了MediaMTX成功实现HLS流媒体转发,但HLS播放兼容性问题可能因缺少音频流导致。推流地址为rtsp://127.0.0.1:8554/stream,RTMP地址为rtmp://127.0.0.1:1935/stream,HLS播放地址为http://127.0.0.1:8888/stream(Chrome)和http://127.0.0.1:8888/stream/index.m3u8(其他播放器可能不支持)。
47 1
FFmpeg开发笔记(十五)详解MediaMTX的推拉流
|
9天前
|
缓存 编解码
FFmpeg开发笔记(十四)FFmpeg音频重采样的缓存
FFmpeg在视频流重编码和音频重采样中使用缓存机制。在音频文件格式转换时,特别是对于帧长度不固定的格式如ogg、amr、wma,需处理重采样缓存。通过调用`swr_convert`,传入空输入和0大小来清空缓存。在`swrmp3.c`中,修改帧样本数处理,并在循环结束后添加代码以冲刷缓存。编译并运行程序,将ogg文件重采样为MP3,日志显示操作成功,播放转换后的文件确认功能正常。
32 7
FFmpeg开发笔记(十四)FFmpeg音频重采样的缓存
|
9天前
|
开发工具
使用FFmpeg4.3.1的SDK官方开发包编译ffmpeg.c(三)
使用FFmpeg4.3.1的SDK官方开发包编译ffmpeg.c(三)
24 0
|
9天前
|
Linux 编译器 数据安全/隐私保护
Windows10 使用MSYS2和VS2019编译FFmpeg源代码-测试通过
FFmpeg作为一个流媒体的整体解决方案,在很多项目中都使用了它,如果我们也需要使用FFmpeg进行开发,很多时候我们需要将源码编译成动态库或者静态库,然后将库放入到我们的项目中,这样我们就能在我们的项目中使用FFmpeg提供的接口进行开发。关于FFmpeg的介绍这里就不过多说明。
95 0
|
8月前
|
C++ Windows
FFmpeg入门及编译 3
FFmpeg入门及编译
60 0